<?xml version="1.0" standalone="no"?>
<!DOCTYPE svg PUBLIC "-//W3C//DTD SVG 1.1//EN" "http://www.w3.org/Graphics/SVG/1.1/DTD/svg11.dtd" >
<svg xmlns="http://www.w3.org/2000/svg">
<metadata>Generated by IcoMoon</metadata>
<defs>
<font id="ttbase" horiz-adv-x="1024">
<font-face units-per-em="1024" ascent="960" descent="-64" />
<missing-glyph horiz-adv-x="1024" />
<glyph unicode="&#x20;" horiz-adv-x="512" d="" />
<glyph unicode="&#xe900;" glyph-name="close" d="M158.080 831.36l-29.44-29.44 353.92-353.92-353.92-353.92 29.44-29.44 353.92 353.92 353.92-353.92 29.44 29.44-353.92 353.92 353.92 353.92-29.44 29.44-353.92-353.92-353.92 353.92z" />
<glyph unicode="&#xe901;" glyph-name="fax" d="M430.080 898.56v-204.8h-40.96c-33.699 0-61.44-27.741-61.44-61.44v-450.56c0-33.699 27.741-61.44 61.44-61.44h40.32c-5.384-67.975-63.296-122.88-132.48-122.88s-127.096 54.905-132.48 122.88h60.8c33.699 0 61.44 27.741 61.44 61.44v573.44c0 33.699-27.741 61.44-61.44 61.44h-163.84c-33.699 0-61.44-27.741-61.44-61.44v-573.44c0-33.699 27.741-61.44 61.44-61.44h62.080c5.355-90.669 81.556-163.84 173.44-163.84s168.085 73.171 173.44 163.84h492.16c33.699 0 61.44 27.741 61.44 61.44v450.56c0 33.699-27.741 61.44-61.44 61.44h-40.96v204.8h-491.52zM471.040 857.6h409.6v-245.76h-409.6v245.76zM61.44 775.68h163.84c11.357 0 20.48-9.123 20.48-20.48v-573.44c0-11.357-9.123-20.48-20.48-20.48h-163.84c-11.357 0-20.48 9.123-20.48 20.48v573.44c0 11.357 9.123 20.48 20.48 20.48zM389.12 652.8h40.96v-81.92h491.52v81.92h40.96c11.357 0 20.48-9.123 20.48-20.48v-450.56c0-11.357-9.123-20.48-20.48-20.48h-573.44c-11.357 0-20.48 9.123-20.48 20.48v450.56c0 11.357 9.123 20.48 20.48 20.48zM552.96 529.92c-22.622 0-40.96-18.338-40.96-40.96s18.338-40.96 40.96-40.96c22.622 0 40.96 18.338 40.96 40.96s-18.338 40.96-40.96 40.96zM675.84 529.92c-22.622 0-40.96-18.338-40.96-40.96s18.338-40.96 40.96-40.96c22.622 0 40.96 18.338 40.96 40.96s-18.338 40.96-40.96 40.96zM798.72 529.92c-22.622 0-40.96-18.338-40.96-40.96s18.338-40.96 40.96-40.96c22.622 0 40.96 18.338 40.96 40.96s-18.338 40.96-40.96 40.96zM552.96 407.040c-22.622 0-40.96-18.338-40.96-40.96s18.338-40.96 40.96-40.96c22.622 0 40.96 18.338 40.96 40.96s-18.338 40.96-40.96 40.96zM675.84 407.040c-22.622 0-40.96-18.338-40.96-40.96s18.338-40.96 40.96-40.96c22.622 0 40.96 18.338 40.96 40.96s-18.338 40.96-40.96 40.96zM798.72 407.040c-22.622 0-40.96-18.338-40.96-40.96s18.338-40.96 40.96-40.96c22.622 0 40.96 18.338 40.96 40.96s-18.338 40.96-40.96 40.96zM552.96 284.16c-22.622 0-40.96-18.338-40.96-40.96s18.338-40.96 40.96-40.96c22.622 0 40.96 18.338 40.96 40.96s-18.338 40.96-40.96 40.96zM675.84 284.16c-22.622 0-40.96-18.338-40.96-40.96s18.338-40.96 40.96-40.96c22.622 0 40.96 18.338 40.96 40.96s-18.338 40.96-40.96 40.96zM798.72 284.16c-22.622 0-40.96-18.338-40.96-40.96s18.338-40.96 40.96-40.96c22.622 0 40.96 18.338 40.96 40.96s-18.338 40.96-40.96 40.96z" />
<glyph unicode="&#xe902;" glyph-name="prev" d="M405.76 691.84c-3.567-0.283-8.186-2.731-11.505-6.383l-223.375-222.737-14.080-14.72 14.080-14.72 223.36-222.72c3.785-4.67 9.521-7.63 15.948-7.63 11.312 0 20.482 9.17 20.482 20.482 0 6.427-2.96 12.163-7.592 15.918l-188.198 188.19h604.8c0.086-0.001 0.188-0.002 0.29-0.002 11.312 0 20.482 9.17 20.482 20.482s-9.17 20.482-20.482 20.482c-0.102 0-0.204-0.001-0.305-0.002h-604.785l188.16 188.16c4.018 3.75 6.523 9.077 6.523 14.989 0 11.312-9.17 20.482-20.482 20.482-1.173 0-2.323-0.099-3.442-0.288z" />
<glyph unicode="&#xe903;" glyph-name="left" d="M620.16 790.4l-327.68-327.68-14.080-14.72 14.080-14.72 327.68-327.68 29.44 29.44-312.96 312.96 312.96 312.96-29.44 29.44z" />
<glyph unicode="&#xe904;" glyph-name="link" d="M810.88 959.36c-56.709 0-110.341-22.661-150.4-62.72-10.691-10.65-118.748-118.728-126.080-126.080-67.707-67.686-80.189-170.537-37.12-250.88l30.72 30.72c-28.017 62.996-16.389 139.791 35.2 191.36 7.332 7.352 115.369 115.43 126.080 126.080 32.399 32.399 75.807 50.56 121.6 50.56 45.773 0 88.581-18.181 120.96-50.56 32.399-32.399 50.56-75.167 50.56-120.96s-18.181-89.221-50.56-121.6l-126.080-126.080c-32.379-32.379-75.807-50.56-121.6-50.56-24.494 0-48.072 5.632-69.76 15.36l-30.72-30.72c30.536-16.445 64.845-24.96 100.48-24.96 56.709 0 110.321 22.001 150.4 62.080l126.080 126.080c40.1 40.079 62.72 93.711 62.72 150.4-0.020 56.709-22.62 109.66-62.72 149.76-40.079 40.079-93.092 62.72-149.76 62.72zM693.76 652.8c-4.083-0.196-8.719-2.375-12.163-5.763l-368.637-368.637c-3.768-3.767-6.098-8.972-6.098-14.721 0-11.497 9.32-20.817 20.817-20.817 5.749 0 10.954 2.33 14.721 6.098l368.64 368.64c4.018 3.75 6.523 9.077 6.523 14.989 0 11.312-9.17 20.482-20.482 20.482-1.173 0-2.323-0.099-3.442-0.288zM339.84 487.68c-56.689 0-110.321-22.001-150.4-62.080l-126.080-126.080c-40.1-40.079-62.72-93.711-62.72-150.4s22.62-109.64 62.72-149.76c40.079-40.079 93.092-62.72 149.76-62.72 56.689 0 110.362 22.641 150.4 62.72 10.691 10.65 118.748 118.707 126.080 126.080 67.707 67.686 80.21 170.537 37.12 250.88l-30.72-30.72c28.017-62.996 16.369-139.791-35.2-191.36-7.352-7.352-115.369-115.389-126.080-126.080-32.379-32.379-75.807-50.56-121.6-50.56-45.773 0.020-88.581 18.181-120.96 50.56-32.399 32.399-50.56 75.167-50.56 120.96s18.181 89.221 50.56 121.6l126.72 126.080c32.379 32.379 75.187 50.56 120.96 50.56 24.515 0 48.051-5.632 69.76-15.36l30.72 30.72c-30.536 16.445-64.824 24.96-100.48 24.96z" />
<glyph unicode="&#xe905;" glyph-name="location" d="M512 939.52c-181.005 0-327.68-146.675-327.68-327.68 0-149.703 79.062-310.561 156.8-435.2s155.52-213.12 155.52-213.12c3.771-4.26 9.254-6.933 15.36-6.933s11.589 2.672 15.341 6.911c0.019 0.022 77.834 90.337 155.539 215.702s156.8 285.847 156.8 432.64c0 181.005-146.675 327.68-327.68 327.68zM512 898.56c158.963 0 286.72-127.757 286.72-286.72 0-131.735-74.505-288.436-150.4-410.88-63.628-102.653-117.433-168.692-136.32-191.36-19.053 22.515-72.882 87.087-136.32 188.8-75.862 121.633-150.4 278.471-150.4 413.44 0 158.963 127.757 286.72 286.72 286.72zM512 734.72c-78.933 0-143.36-64.427-143.36-143.36s64.427-143.36 143.36-143.36c78.933 0 143.36 64.427 143.36 143.36s-64.427 143.36-143.36 143.36zM512 693.76c56.797 0 102.4-45.603 102.4-102.4s-45.603-102.4-102.4-102.4c-56.797 0-102.4 45.603-102.4 102.4s45.603 102.4 102.4 102.4z" />
<glyph unicode="&#xe906;" glyph-name="right" d="M403.84 790.4l-29.44-29.44 312.96-312.96-312.96-312.96 29.44-29.44 327.68 327.68 14.080 14.72-14.080 14.72-327.68 327.68z" />
<glyph unicode="&#xe907;" glyph-name="mail" d="M0 816.64v-737.28h1024v737.28h-1024zM40.96 775.68h942.080v-51.84l-471.040-372.48-471.040 372.48v51.84zM40.96 671.36l458.24-362.24c3.473-2.799 7.939-4.492 12.8-4.492s9.327 1.694 12.839 4.523l458.201 362.209v-551.040h-942.080v551.040z" />
<glyph unicode="&#xe908;" glyph-name="phone" d="M190.080 960c-13.504-1.357-27.47-6.592-40.96-16-16.017-11.198-51.195-39.055-83.84-70.4-16.323-15.672-31.557-32.101-43.52-48s-22.396-30.034-21.76-49.92c0.616-19.274 2.236-75.36 42.88-161.92s120.077-205.816 274.56-360.32c154.514-154.555 273.767-233.91 360.32-274.56s142.031-42.255 161.28-42.88c19.879-0.615 34.671 9.792 50.56 21.76s32.335 27.195 48 43.52c31.33 32.649 59.206 67.813 70.4 83.84 25.103 35.795 20.657 77.677-6.4 96.64-17.636 12.335-185.49 123.936-209.92 138.88-23.78 14.518-52.028 7.556-77.44-5.76-0.184-0.096-0.455 0.098-0.64 0-21.226-11.186-79.098-44.27-93.44-52.48-10.538 6.622-56.855 37.033-156.8 136.96-99.027 99.009-129.889 144.949-136.96 156.16 7.977 13.934 41.466 73.721 52.48 94.72 13.464 25.483 20.442 53.946 5.12 78.080-6.86 10.829-37.621 58.58-69.12 106.24s-61.572 92.588-69.12 103.040c-9.527 13.176-25.037 20.959-42.24 22.4-4.301 0.36-8.939 0.452-13.44 0zM193.92 918.4c2.021 0.101 3.983 0.209 5.76 0 7.107-0.838 12.169-3.607 12.8-4.48 4.003-5.543 36.383-54.803 67.84-102.4s63.447-96.005 69.12-104.96c1.841-2.899 2.392-19.267-7.040-37.12v-0.64c-10.476-19.972-58.24-103.68-58.24-103.68l-5.76-10.24 5.76-10.24c0 0 35.58-59.92 149.76-174.080 114.196-114.176 174.72-150.4 174.72-150.4l10.24-5.76 10.24 5.76c0 0 83.672 48.366 103.68 58.88 17.738 9.381 34.475 8.406 37.76 6.4 16.816-10.287 195.832-129.537 207.36-137.6 2.107-1.477 11.157-17.655-3.84-39.040-8.774-12.563-36.44-48.639-65.92-79.36-14.74-15.36-30.534-29.258-43.52-39.040-12.725-9.585-23.562-13.29-23.68-13.44-0.125 0.004-0.512-0.004-0.64 0-20.036 0.641-64.667 1.18-145.28 39.040-81.127 38.101-196.79 114.189-348.8 266.24-151.98 152-228.143 267.664-266.24 348.8s-38.407 126.098-39.040 145.92c0.011-0.348 3.664 11.328 13.44 24.32s23.683 28.134 39.040 42.88c30.715 29.491 66.787 57.77 79.36 66.56 7.984 5.568 15.056 7.378 21.12 7.68z" />
<glyph unicode="&#xe909;" glyph-name="pin" d="M736 960c-3.956-0.108-7.72-0.864-11.52-1.92-15.201-4.222-28.918-14.321-39.68-28.16 3.602 2.981 1.284 1.368-0.633-0.633l-170.887-239.367c-105.051 24.353-219.657-3.337-301.44-85.12-3.657-3.698-5.917-8.785-5.917-14.4s2.259-10.702 5.918-14.402l152.318-151.678-359.68-455.040c-2.824-3.482-4.534-7.967-4.534-12.852 0-11.312 9.17-20.482 20.482-20.482 4.885 0 9.37 1.71 12.89 4.564l454.362 359.65 152.32-151.68c3.698-3.657 8.785-5.917 14.4-5.917s10.702 2.259 14.402 5.918c82.935 82.893 110.040 199.674 83.838 305.918l240 163.2c-3.602-2.981-1.284-1.368 0.633 0.633 14.034 10.446 23.652 23.297 28.167 38.407s2.203 34.2-10.24 46.72l-240.64 243.84c-6.181 6.286-14.289 9.824-22.4 11.52-4.055 0.848-8.204 1.388-12.16 1.28zM739.84 919.040c0.734-0.052 0.836-0.188 1.28-0.64l241.28-243.84c0.91-0.915 1.389-1.112 0-5.76-1.334-4.465-6.096-11.536-13.44-17.28l-0.64-0.64-248.96-169.6c3.602 2.981 1.284 1.368-0.633-0.633l-1.287-0.647c-4.88-3.782-7.991-9.644-7.991-16.232 0-2.203 0.348-4.324 0.991-6.313 26.798-89.66 6.3-188.698-58.281-263.535l-394.88 394.24c73.82 63.689 171.608 84.736 260.48 59.52 1.621-0.461 3.483-0.727 5.407-0.727 7.046 0 13.261 3.558 16.947 8.975l176.686 249.031 0.64 0.64c5.923 7.254 13.344 11.529 17.92 12.8 2.381 0.661 3.746 0.692 4.48 0.64zM392.96 394.88l65.92-65.28-312.96-247.68 247.040 312.96z" />
<glyph unicode="&#xe90a;" glyph-name="next" d="M611.2 691.84c-9.631-1.794-16.826-10.134-16.826-20.153 0-5.942 2.53-11.293 6.572-15.035l188.173-188.172h-604.8c-0.287 0.014-0.622 0.023-0.96 0.023s-0.673-0.008-1.007-0.024c-10.855-0.525-19.495-9.493-19.495-20.478 0-11.323 9.179-20.502 20.502-20.502 0.338 0 0.673 0.008 1.007 0.024l604.753-0.002-188.16-188.16c-4.67-3.785-7.63-9.521-7.63-15.948 0-11.312 9.17-20.482 20.482-20.482 6.427 0 12.163 2.96 15.918 7.592l223.39 222.758 14.080 14.72-14.080 14.72-223.36 222.72c-3.746 3.987-9.053 6.471-14.94 6.471-0.598 0-1.191-0.026-1.776-0.076-0.21 0.020-0.546 0.028-0.884 0.028s-0.673-0.008-1.007-0.024z" />
<glyph unicode="&#xe90b;" glyph-name="plus" d="M471.040 775.68v-286.72h-286.72v-81.92h286.72v-286.72h81.92v286.72h286.72v81.92h-286.72v286.72h-81.92z" />
<glyph unicode="&#xe90c;" glyph-name="reply" d="M427.52 734.72c-2.962-0.125-7.037-1.828-10.274-4.508l-327.646-266.212c-4.708-3.785-7.695-9.544-7.695-16s2.987-12.215 7.655-15.969l327.72-266.271c3.473-2.798 7.938-4.491 12.798-4.491 11.312 0 20.482 9.17 20.482 20.482 0 0.003 0 0.006 0 0.009v141.44c217.199-4.407 329.624-69.655 387.2-134.4 58.663-65.967 63.239-128.024 63.36-129.92 0.002-0.029 0-1.28 0-1.28 0.353-11.040 9.387-19.856 20.48-19.856 11.316 0 20.49 9.174 20.49 20.49 0 0.227-0.004 0.453-0.011 0.678 0.001-0.033 0.001 1.231 0.001 1.247 0 0 0.002 1.256 0 1.28-0.055 3.922-2.31 126.51-65.92 252.16-62.759 123.968-189.82 248.828-425.6 256v144.64c0 0.047 0.001 0.103 0.001 0.158 0 11.312-9.17 20.482-20.482 20.482-0.902 0-1.79-0.058-2.661-0.171zM409.6 671.36v-120.96c0.001-11.31 9.17-20.479 20.48-20.48 235.775 0 349.816-116.148 409.6-234.24 15.212-30.049 26.575-60.161 35.2-88.32-2.396 2.896-3.828 5.428-6.4 8.32-67.924 76.38-197.719 150.4-438.4 150.4-11.31-0.001-20.479-9.17-20.48-20.48v-120.96l-274.56 223.36 274.56 223.36z" />
<glyph unicode="&#xe90d;" glyph-name="folder" d="M61.44 898.56c-33.691 0-61.44-27.749-61.44-61.44v-430.080c-0.014-0.287-0.023-0.622-0.023-0.96s0.008-0.673 0.024-1.007l-0.002-264.273v-81.92c0-33.691 27.749-61.44 61.44-61.44h901.12c33.691 0 61.44 27.749 61.44 61.44v344.96c0.040 0.479 0.063 1.037 0.063 1.6s-0.023 1.121-0.067 1.673l0.005 225.207v122.88c0 33.691-27.749 61.44-61.44 61.44h-593.28c0.066-0.089-0.197 0-0.64 0-0.659 0.457-2.507 2.011-5.76 5.76-5.005 5.767-10.846 15.336-17.28 25.6s-13.258 21.096-21.76 30.72c-8.502 9.624-20.352 19.84-37.12 19.84h-225.28zM61.44 857.6h225.28c-1.244 0 1.332-0.024 6.4-5.76s10.876-15.384 17.28-25.6c6.404-10.216 13.436-21.127 21.76-30.72s19.664-19.84 36.48-19.84h593.92c11.529 0 20.48-8.951 20.48-20.48v-65.28c-6.467 2.34-13.25 3.84-20.48 3.84h-901.12c-7.23 0-14.013-1.5-20.48-3.84v147.2c0 11.529 8.951 20.48 20.48 20.48zM61.44 652.8h901.12c11.529 0 20.48-8.951 20.48-20.48v-225.28c-0.014-0.287-0.023-0.622-0.023-0.96s0.008-0.673 0.024-1.007l-0.002-346.193c0-11.529-8.951-20.48-20.48-20.48h-901.12c-11.529 0-20.48 8.951-20.48 20.48v344.96c0.040 0.479 0.063 1.037 0.063 1.6s-0.023 1.121-0.067 1.673l0.005 225.207c0 11.529 8.951 20.48 20.48 20.48z" />
<glyph unicode="&#xe90e;" glyph-name="comments" d="M143.36 878.080c-56.227 0-102.4-46.173-102.4-102.4v-491.52c0-56.227 46.173-102.4 102.4-102.4h83.84c2.798-24.674 2.484-47.411-3.84-66.56-7.765-23.512-22.204-43.275-49.28-59.52-5.749-3.692-9.504-10.053-9.504-17.291 0-11.052 8.754-20.060 19.706-20.468 86.944-0.001 186.534 45.352 236.837 163.839h459.52c56.227 0 102.4 46.173 102.4 102.4v491.52c0 56.227-46.173 102.4-102.4 102.4h-737.28zM143.36 837.12h737.28c33.885 0 61.44-27.555 61.44-61.44v-491.52c0-33.885-27.555-61.44-61.44-61.44h-471.040c-8.767-0.011-16.247-5.538-19.154-13.299-31.897-87.008-88.754-128.38-147.886-143.501 8.021 11.478 15.568 23.546 19.84 36.48 10.667 32.296 9.748 67.667 3.2 103.68-1.832 9.432-9.991 16.502-19.825 16.64h-102.415c-33.885 0-61.44 27.555-61.44 61.44v491.52c0 33.885 27.555 61.44 61.44 61.44z" />
<glyph unicode="&#xe90f;" glyph-name="user" d="M529.92 890.24c-95.677-1.761-156.766-40.438-183.040-100.48-25.022-57.182-19.418-129.445-1.28-204.16-9.775-11.414-17.487-26.794-14.72-49.92 3.028-25.169 9.965-43.083 19.84-55.68 5.423-6.919 12.587-7.558 19.2-10.88 3.63-21.419 9.598-42.907 18.56-60.8 5.151-10.284 10.924-19.819 16.64-27.52 2.531-3.41 6.278-5.448 8.96-8.32 0.135-25.264 0.258-46.308-1.92-72.96-6.659-16.053-22.173-29.029-47.36-41.6-25.995-12.974-59.878-24.979-94.080-39.68s-69.443-32.625-97.28-60.8c-27.837-28.175-47.497-66.802-50.56-117.76l-1.28-21.76h821.76l-1.28 21.76c-3.056 50.939-22.83 89.579-50.56 117.76s-62.568 46.096-96.64 60.8c-34.072 14.704-67.543 26.709-93.44 39.68-24.846 12.445-40.575 25.095-47.36 40.96-2.245 26.996-2.059 48.108-1.92 73.6 2.663 2.897 6.475 4.897 8.96 8.32 5.613 7.73 10.997 17.239 16 27.52 8.727 17.933 15.014 39.441 18.56 60.8 6.439 3.323 13.269 4.133 18.56 10.88 9.879 12.598 16.823 30.507 19.84 55.68 2.7 22.408-4.776 37.195-14.080 48.64 9.999 32.476 22.771 84.993 18.56 138.88-2.299 29.412-9.862 58.783-27.52 83.2-16.181 22.375-42.416 38.73-75.52 45.44-21.497 27.892-60.27 38.4-104.96 38.4h-0.64zM530.56 849.28c0.258 0 0.383 0.001 0.64 0 41.234-0.15 67.917-12.246 75.52-25.6l5.12-8.32 9.6-1.28c28.487-3.959 44.805-15.437 56.32-31.36s17.92-38.149 19.84-62.72c3.841-49.142-10.291-106.327-19.2-133.12l-5.12-16 14.080-8.32c-0.883 0.536 7.809-5.39 5.76-22.4-2.41-20.108-7.197-30.503-10.88-35.2s-5.603-4.467-5.76-4.48l-17.28-1.28-1.92-16.64c-1.898-17.721-9.023-39.352-17.28-56.32-4.129-8.484-8.404-15.947-12.16-21.12s-7.723-8.070-5.76-7.040l-10.88-5.76v-12.16c0-29.648-1.19-53.985 1.92-88.32v-2.56l1.28-2.56c11.692-31.431 38.739-51.024 68.48-65.92s63.93-25.84 96-39.68c32.070-13.84 61.472-30.399 83.2-52.48 17.271-17.552 28.146-40.75 33.92-69.76h-727.040c5.791 28.997 16.574 52.203 33.92 69.76 21.822 22.087 51.635 38.637 83.84 52.48s66.162 24.788 96 39.68c29.838 14.892 57.417 34.458 69.12 65.92l1.28 5.12c3.109 34.326 1.92 58.663 1.92 88.32v12.16l-10.88 5.76c1.868-0.978-2.536 1.834-6.4 7.040s-8.551 12.637-12.8 21.12c-8.498 16.966-15.409 38.783-17.28 56.32l-1.92 16.64-17.28 1.28c-0.156 0.013-2.077-0.219-5.76 4.48s-8.46 15.087-10.88 35.2c-2.035 17.014 6.643 22.938 5.76 22.4l13.44 8.32-3.84 14.72c-19.281 74.204-22.617 141.685-2.56 187.52 20.001 45.706 60.76 74.433 145.92 76.16z" />
<glyph unicode="&#xe910;" glyph-name="bird" d="M880 959.36c-16.486 0-19.84-8.325-19.84-19.2v-144c0-22.856 0-40.96-40.96-40.96-58.45 0-81.92-24.924-81.92-61.44 0-16.671 12.8-61.44 81.92-61.44 76.882 0 81.92 54.231 81.92 81.92v142.72c0 14.193 1.306 21.12 9.6 21.12 37.949 0 53.012-20.48 93.44-20.48 0 0 19.84 0.384 19.84 19.84v42.24c0 15.79-7.373 19.2-20.48 19.2-73.277 0-54.789 20.48-123.52 20.48zM502.4 610.56c-111.428 0-195.2-86.935-195.2-194.56 0-50.507 5.531-139.993-26.24-206.72-15.886-33.363-40.263-60.803-80-78.080s-96.473-23.819-177.28-10.24c-1.029 0.183-2.213 0.288-3.422 0.288-11.312 0-20.482-9.17-20.482-20.482 0-6.26 2.809-11.864 7.234-15.621 70.425-59.18 196.012-85.13 291.229-87.064-4.099-3.614-7.040-7.040-7.040-7.040-3.299-3.735-5.313-8.672-5.313-14.080 0-11.771 9.542-21.313 21.313-21.313 6.363 0 12.075 2.788 15.98 7.21 0.020 0.023 29.574 33.943 86.42 33.943s86.4-33.92 86.4-33.92c3.925-4.445 9.637-7.233 16-7.233 11.771 0 21.313 9.542 21.313 21.313 0 5.408-2.014 10.345-5.333 14.103 0.020-0.023-21.493 22.958-59.5 37.097 40.517 16.824 77.834 40.244 109.44 71.040 67.33 65.606 110.338 162.56 117.12 286.080 35.792 16.846 62.775 36.758 80.64 74.88 1.324 2.636 2.099 5.743 2.099 9.032 0 10.698-8.202 19.481-18.661 20.402 8.706 13.932 16.634 31.57 18.482 52.486 1.219 2.544 1.932 5.53 1.932 8.683 0 11.312-9.17 20.482-20.482 20.482-1.362 0-2.692-0.133-3.979-0.386-3.317-0.101-7.481-1.788-10.787-4.488-18.392-15.437-58.297-25.776-86.363-30.051-34.679 46.183-90.407 74.24-155.52 74.24zM502.4 569.6c54.091 0 96.804-22.446 123.52-58.88 1.557-9.701 9.808-17.082 19.82-17.28 0.211-0.007 0.435-0.010 0.66-0.010s0.449 0.004 0.673 0.011c0.254-0.015 0.59-0.023 0.927-0.023s0.673 0.008 1.007 0.024c1.195-0.003 2.926 0.234 4.577 0.67 18.506 1.951 43.827 6.132 68.976 14.688-8.182-12.369-16.64-20.48-16.64-20.48l-33.28-28.8 42.88-7.040c0 0 3.803-0.16 7.040-0.64-12.044-14.286-27.719-22.887-53.12-33.92 1.958 0.565-0.123 0.082-2.058-0.689-0.159-0.080-0.202-0.462-0.502-0.591-0.095 0.002-0.207 0.002-0.32 0.002s-0.225-0.001-0.337-0.003c-8.688-2.49-14.953-10.377-14.953-19.726 0-3.816 1.044-7.389 2.862-10.448-6.494-114.731-45.906-200.233-105.012-257.826-61.209-59.642-144.581-90.24-239.36-90.24-57.868 0-132.152 14.052-193.92 36.48 39.098 1.414 73.863 6.431 101.76 18.56 49.157 21.373 80.651 58.259 99.84 98.56 38.378 80.601 30.72 177.227 30.72 224 0 86.935 63.695 153.6 154.24 153.6zM563.2 509.44c-16.966 0-30.72-13.754-30.72-30.72s13.754-30.72 30.72-30.72c16.966 0 30.72 13.754 30.72 30.72s-13.754 30.72-30.72 30.72z" />
<glyph unicode="&#xe911;" glyph-name="cat" d="M352.64 960.64c-19.198-2.481-36.991-15.442-44.16-34.56 0.858 2.143-0.025 0.248-0.605-1.775-5.798-22.373-17.856-37.323-40.995-48.785s-57.865-17.92-103.040-17.92c-90.725 0-163.84-73.115-163.84-163.84 0-86.874 47.149-136.604 92.8-160 29.542-15.14 54.033-19.618 71.040-21.76v-504.32c0-39.4 32.28-71.68 71.68-71.68s71.68 32.28 71.68 71.68v317.44c0-1.134 1.725 4.763 10.24 12.16s21.928 15.574 38.4 23.040c32.943 14.931 77.046 26.24 115.2 26.24s82.257-11.309 115.2-26.24c16.472-7.466 29.885-15.643 38.4-23.040s10.24-13.294 10.24-12.16v-317.44c0-39.4 32.28-71.68 71.68-71.68s71.68 32.28 71.68 71.68v296.96c0 11.357 9.123 20.48 20.48 20.48s20.48-9.123 20.48-20.48v-296.96c0-39.4 32.28-71.68 71.68-71.68s71.68 32.28 71.68 71.68v542.72c0.006 0.191 0.010 0.415 0.010 0.64s-0.004 0.449-0.011 0.673c37.242 29.64 61.441 72.511 61.441 121.567v204.8c0.004 0.143 0.006 0.312 0.006 0.482 0 11.312-9.17 20.482-20.482 20.482-5.777 0-10.995-2.391-14.718-6.238l-72.965-72.966c-23.649 9.904-49.060 17.28-76.16 17.28-26.839 0-52.846-7.237-76.16-17.28l-72.96 72.96c-3.702 3.682-8.806 5.958-14.441 5.958-1.001 0-1.986-0.072-2.949-0.211-10.046-1.304-17.811-9.899-17.811-20.308 0-0.056 0-0.112 0.001-0.167v-192.631c-52.050 18.612-124.218 28.8-204.8 28.8-63.159 0-127.181-21.44-180.48-42.24-26.65-10.4-50.77-20.676-69.76-28.16s-34.849-11.52-36.48-11.52c-33.885 0-61.44 27.555-61.44 61.44s27.555 61.44 61.44 61.44c80.788 0 136.824 17.767 175.36 44.8s58.684 62.673 67.84 94.72c0.002 0.095 0.002 0.207 0.002 0.32s-0.001 0.225-0.003 0.337c6.434 25.717-7.789 53.784-33.28 63.343 2.143-0.858 0.248 0.025-1.775 0.605-6.578 1.644-12.945 2.142-19.345 1.315zM355.84 919.040c1.351 0.095 2.953 0.241 4.48 0 5.651-2.744 8.343-6.735 7.040-12.8-0.051-0.236 0.059-0.4 0-0.64-7.274-25.135-21.339-51.373-51.2-72.32-30.072-21.095-77.46-37.12-152.32-37.12-56.227 0-102.4-46.173-102.4-102.4s46.173-102.4 102.4-102.4c16.801 0 31.214 6.204 51.2 14.080s43.93 18.080 69.76 28.16c51.661 20.16 112.183 39.68 165.76 39.68 87.6 0 165.932-14.115 208.64-33.28 17.554-75.611 93.215-130.56 180.48-130.56 29.189 0 57.067 6.314 81.92 17.28v-519.040c0-17.944-12.776-30.72-30.72-30.72s-30.72 12.776-30.72 30.72v296.96c0 33.699-27.741 61.44-61.44 61.44s-61.44-27.741-61.44-61.44v-296.96c0-17.944-12.776-30.72-30.72-30.72s-30.72 12.776-30.72 30.72v317.44c0 18.542-11.395 31.653-24.32 42.88s-29.528 21.418-48.64 30.080c-38.225 17.325-86.026 29.44-131.84 29.44s-93.615-12.115-131.84-29.44c-19.112-8.662-35.715-18.853-48.64-30.080s-24.32-24.338-24.32-42.88v-317.44c0-17.944-12.776-30.72-30.72-30.72s-30.72 12.776-30.72 30.72v522.24c0 0.002 0 0.005 0 0.008 0 11.086-8.808 20.115-19.807 20.471-0.033 0.001-36.724 1.253-72.993 19.841s-71.040 50.65-71.040 123.52c0 69.019 53.861 122.88 122.88 122.88 49.033 0 89.315 6.726 120.96 22.4 31.005 15.358 53.131 40.836 62.080 72.96 1.87 4.988 4.906 6.754 8.96 7.040zM696.32 828.16l46.72-46.72c3.687-3.599 8.734-5.818 14.3-5.818 3.681 0 7.136 0.971 10.121 2.671 18.915 10.319 47.448 17.867 72.219 17.867s50.826-7.493 72.96-18.56c2.674-1.37 5.835-2.174 9.182-2.174 5.663 0 10.79 2.298 14.497 6.013l46.72 46.72v-154.88c0-67.269-62.867-122.88-143.36-122.88s-143.36 55.611-143.36 122.88v154.88zM768 734.72c-16.966 0-30.72-13.754-30.72-30.72s13.754-30.72 30.72-30.72c16.966 0 30.72 13.754 30.72 30.72s-13.754 30.72-30.72 30.72zM911.36 734.72c-16.966 0-30.72-13.754-30.72-30.72s13.754-30.72 30.72-30.72c16.966 0 30.72 13.754 30.72 30.72s-13.754 30.72-30.72 30.72z" />
<glyph unicode="&#xe912;" glyph-name="dog" d="M652.8 939.52c-9.299-1.051-16.763-8.46-17.91-17.821l-38.41-309.859h-428.16l-64 63.36c-17.644 17.644-47.216 26.752-72.96 11.52-0.403-0.238-0.879 0.25-1.28 0v-0.64c-35.608-20.54-42.652-70.131-13.44-97.28l0.64-0.64 64.64-62.72v-464.64c0-35.026 21.397-67.506 55.040-78.72 0.095-0.002 0.207-0.002 0.32-0.002s0.225 0.001 0.337 0.003c54.798-15.662 108.143 24.234 108.143 76.8v114.56l90.88-153.6c-2.981 3.602-1.368 1.284 0.633-0.633 18.282-28.724 52.057-48.087 87.047-39.687 0.199 0.047 0.443-0.049 0.64 0 55.081 13.518 80.958 76.003 53.76 122.24l-107.52 182.4h263.68v-223.36c0-35.026 21.397-67.506 55.040-78.72 0.095-0.002 0.207-0.002 0.32-0.002s0.225 0.001 0.337 0.003c54.798-15.662 108.143 24.234 108.143 76.8v241.28l39.68 99.2c0.815 2.123 1.287 4.579 1.287 7.146 0 0.188-0.003 0.375-0.008 0.562l0.001 79.332c0.159 0.962 0.25 2.070 0.25 3.2s-0.091 2.238-0.266 3.318l0.016 98.442h102.4c8.213 0.047 15.305 4.969 18.508 12.031l61.492 143.489c1.182 2.51 1.871 5.451 1.871 8.553 0 8.525-5.208 15.833-12.616 18.917l-204.936 81.97c-2.123 0.815-4.579 1.287-7.146 1.287-0.188 0-0.375-0.003-0.562-0.008l-52.452 0.001-76.16 76.16c-3.702 3.682-8.806 5.958-14.441 5.958-1.001 0-1.986-0.072-2.949-0.211zM670.72 874.24l51.84-51.84c3.681-3.567 8.707-5.765 14.246-5.765 0.167 0 0.333 0.002 0.499 0.006h56.935l182.4-72.96-48-111.36h-109.44c-11.31-0.001-20.479-9.17-20.48-20.48v-89.6l-161.92 81.28 33.92 270.72zM808.96 775.68c-16.966 0-30.72-13.754-30.72-30.72s13.754-30.72 30.72-30.72c16.966 0 30.72 13.754 30.72 30.72s-13.754 30.72-30.72 30.72zM57.6 653.44c6.050 0.714 12.928-2.048 17.92-7.040l69.76-69.76c3.681-3.567 8.707-5.765 14.246-5.765 0.167 0 0.333 0.002 0.499 0.006h449.255l189.44-94.72v-64.64l-39.68-99.2c-0.815-2.123-1.287-4.579-1.287-7.146 0-0.188 0.003-0.375 0.008-0.562l-0.001-245.732c0-25.060-24.188-46.135-55.040-37.76-0.162 0.055-0.478-0.057-0.64 0-15.261 5.351-26.24 21.649-26.24 39.68v243.84c-0.001 11.31-9.17 20.479-20.48 20.48h-430.080c-11.31-0.001-20.479-9.17-20.48-20.48v-51.2c-0.267-1.251-0.42-2.687-0.42-4.16s0.153-2.909 0.444-4.295l-0.024-186.105c0-25.060-24.188-46.135-55.040-37.76-0.163 0.055-0.478-0.057-0.64 0-15.261 5.351-26.24 21.649-26.24 39.68v472.96c-0.023 5.75-2.473 10.997-6.391 14.711l-71.689 69.769c2.981-3.602 1.368-1.284-0.633 0.633-10.507 9.457-9.533 23.431 6.393 32.007-3.114-1.297-0.748-0.487 1.385 0.693 1.584 1.002 3.638 1.629 5.655 1.867zM245.76 284.16h78.080l119.040-202.88c13.664-23.229 3.004-54.812-27.52-62.080-0.095 0.002-0.207 0.002-0.32 0.002s-0.225-0.001-0.337-0.003c-13.911-3.482-32.58 5.601-42.863 21.76l-126.080 214.4v28.8z" />
<glyph unicode="&#xe913;" glyph-name="duck" d="M656 939.52c-42.955 0-80.367-15.915-105.6-42.88s-38.4-64.174-38.4-104.96c0-44.93 18.182-76.406 33.28-105.6s28.16-57.204 28.16-104.96c0-61.891-51.352-120.522-135.040-164.48s-196.976-71.040-309.12-71.040c-11.411 0-20.872-0.575-30.080-5.12s-17.898-17.911-17.28-28.8c0.237-4.183 3.233-5.764 4.48-8.96-3.815-0.633-8.63-0.345-12.16-1.28-7.144-1.892-13.997-4.603-20.48-9.6s-12.829-14.768-12.8-24.96c0.029-10.192 4.838-17.758 10.24-24.32s12.313-12.262 21.12-18.56c17.613-12.597 43.234-26.561 80-43.52-0.002-0.095-0.002-0.207-0.002-0.32s0.001-0.225 0.003-0.337c63.757-29.374 169.609-58.776 281.6-72.303 4.69-24.108 1.433-42.137-4.48-58.24-6.931-18.876-19.84-32.983-19.84-56.96 0-14.955 10.217-27.107 20.48-33.92s21.511-10.926 34.56-14.080c26.098-6.309 57.891-8.32 87.68-8.32 36.002 0 62.546 1.776 81.92 5.76 9.687 1.992 17.567 4.656 24.96 8.96s16 13.283 16 25.6c0 2.521-2.161 2.914-2.56 5.12 3.238 1.542 6.183 3.157 9.6 5.76 5.428 4.134 12.8 11.386 12.8 23.68 0 12.602-7.839 20.299-13.44 24.32-2.44 1.752-4.694 2.011-7.040 3.2 0.161 1.24 1.28 1.884 1.28 3.2 0 12.076-8.135 18.985-12.8 21.76s-8.817 3.849-13.44 5.12c-9.246 2.542-20.328 4.301-33.92 5.76-27.184 2.917-63.446 4.48-103.68 4.48-0.086 0.001-0.188 0.002-0.29 0.002-11.312 0-20.482-9.17-20.482-20.482s9.17-20.482 20.482-20.482c0.102 0 0.204 0.001 0.305 0.002 39.173 0 74.411-1.822 99.185-4.48 4.908-0.527 6.895-1.314 10.88-1.92-0.2-1.075-0.314-2.311-0.314-3.575 0-7.408 3.933-13.897 9.824-17.494-5.409-3.781-8.974-10.002-8.974-17.056 0-4.148 1.233-8.008 3.352-11.233-14.435-2.881-39.198-5.043-73.648-5.043-27.596 0-57.432 2.689-78.080 7.68-10.324 2.496-18.080 5.237-21.76 7.68-1.288 0.855-1.656 0.485-1.92 0.64 0.355 2.213 8.707 18.893 17.28 42.24 6.62 18.029 11.463 41.008 8.32 68.48 26.691-2.201 53.624-3.84 80-3.84 127.483 0 209.495 34.144 259.2 81.92s65.28 107.267 65.28 154.88c0 73.112-39.364 128.777-75.52 176.64s-67.84 88.453-67.84 129.28c0 14.229 2.482 20.804 5.12 24.32s6.542 6.069 14.72 8.32c16.356 4.503 46.523 4.423 80.64 12.8 42.607 10.478 71.58 23.944 91.52 37.76s31.233 28.13 37.76 36.48c9.849 12.597 17.501 27.026 15.36 45.44-1.071 9.207-7.618 20.661-17.92 25.6s-20.592 3.963-31.36 1.28c-18.745-4.679-43.511-8.941-66.56-8.96s-44.041 4.799-55.68 12.8c-10.061 6.922-22.842 30.289-44.8 54.4s-56.653 46.72-110.080 46.72zM656 898.56c42.973 0 62.299-14.547 79.36-33.28s28.012-43.966 52.48-60.8c22.89-15.735 51.117-19.862 78.72-19.84 25.75 0.021 50.246 4.709 71.040 9.6-1.132-2.916-1.017-3.608-3.2-6.4-6.744-8.628-13.632-17.651-28.8-28.16s-38.598-22.448-77.44-32c-27.774-6.819-55.575-5.547-81.92-12.8-13.172-3.626-26.974-10.371-36.48-23.040s-13.44-29.574-13.44-49.28c0-60.201 39.996-106.574 75.52-153.6s67.84-94.114 67.84-152.32c0-38.669-12.616-86.508-53.12-125.44s-110.095-70.4-230.4-70.4c-144.488 0-309.184 40.836-387.2 76.8-35.447 16.351-59.042 29.726-72.96 39.68-3.029 2.166-3.695 3.349-5.76 5.12 8.351 1.613 19.042 2.56 33.28 2.56 0.198-0.007 0.43-0.011 0.664-0.011 11.312 0 20.482 9.17 20.482 20.482 0 6.461-2.992 12.224-7.666 15.978-1.781 1.482-2.404 2.503-3.88 3.871 117.373 0.613 234.556 28.286 324.48 75.52 90.929 47.762 156.8 116.517 156.8 200.32 0 55.852-17.658 93.952-33.28 124.16s-28.16 52.052-28.16 86.4c0 31.939 10.164 58.253 27.52 76.8s42.371 30.080 75.52 30.080zM686.080 837.12c-16.966 0-30.72-13.754-30.72-30.72s13.754-30.72 30.72-30.72c16.966 0 30.72 13.754 30.72 30.72s-13.754 30.72-30.72 30.72z" />
<glyph unicode="&#xe914;" glyph-name="fish" d="M592 837.12c0.12 0.097-1.657-0.184-3.345-0.676l-246.255-62.684c-9.087-2.224-15.725-10.298-15.725-19.922 0-9.392 6.321-17.307 14.941-19.724 1.63-0.439 19.541-10.523 28.944-27.555 9.286-16.819 14.353-40.424 0.64-77.44-13.739-7.828-27.346-15.631-39.68-23.68-49.024-31.993-79.294-58.532-96.64-74.24-17.112 29.985-71.24 115.2-177.92 115.2-7.155 0-17.353-0.717-25.6-12.8-4.124-6.042-5.414-14.077-4.48-21.12s3.104-13.882 7.040-20.48c17.945-30.114 50.56-91.15 50.56-140.16 0-48.75-33.903-123.877-53.12-150.4-6.763-9.321-10.811-22.86-5.12-35.2s18.926-17.92 30.080-17.92c77.975 0 128.796 37.821 157.44 74.88 12.378 16.014 19.727 31.020 25.6 44.16 37.956-34.216 130.711-107.676 251.52-136.32 11.108-20.61 7.734-42.841 2.56-64.64-2.743-11.556-6.118-21.512-6.4-33.92-0.141-6.204 0.57-14.821 7.040-22.4s16.671-10.24 24.32-10.24h75.52c3.497 0.044 7.2 1.234 10.321 3.249-2.088-1.271 8.533 3.842 19.119 9.551s23.66 13.323 37.12 24.32c24.16 19.74 49.105 50.194 56.32 92.16 130.226 22.737 212.536 81.205 263.68 156.8 7.073 10.48 15.618 22.237 18.56 38.4s-0.673 34.901-11.52 54.4c-14.564 26.211-46.020 80.868-108.16 128.64-33.312 25.609-75.673 48.956-128.64 65.28-8.6 33.811-44.188 142.101-152.96 163.84-1.536 0.413-3.3 0.65-5.119 0.65-0.225 0-0.45-0.004-0.674-0.011zM593.28 795.52c65.726-15.088 96.988-74.53 110.72-111.36-34.73 7.024-73.029 11.52-115.84 11.52-59.537 0-117.781-17.651-169.6-41.6 3.35 28.983-1.817 53.586-12.16 72.32-4.15 7.517-9.291 12.261-14.080 17.92l200.96 51.2zM588.16 654.72c51.403 0 95.059-6.103 133.12-16 3.478-2.814 7.956-4.518 12.832-4.518 0.439 0 0.875 0.014 1.307 0.041 49.46-14.747 88.723-35.621 118.981-58.883 55.42-42.606 83.008-90.794 97.28-116.48 7.871-14.149 8.097-21.073 7.040-26.88s-5.327-12.917-12.16-23.040c-58.947-87.13-159.243-149.12-358.4-149.12-185.595 0-341.76 157.44-341.76 157.44-3.76 4.122-9.154 6.698-15.15 6.698-9.83 0-18.043-6.925-20.026-16.164-0.024-0.135-6.416-29.836-29.464-59.655-21.042-27.223-54.964-52.531-110.080-56.96 24.701 38.5 53.76 101.414 53.76 160.64 0 59.382-30.194 114.569-49.92 148.48 83.542-14.104 137.6-108.8 137.6-108.8 3.48-6.633 10.319-11.080 18.196-11.080 5.636 0 10.741 2.277 14.444 5.961-0.001-0.001 43.096 42.019 108.159 84.479s151.515 83.84 234.24 83.84zM778.24 509.44c-22.622 0-40.96-18.338-40.96-40.96s18.338-40.96 40.96-40.96c22.622 0 40.96 18.338 40.96 40.96s-18.338 40.96-40.96 40.96zM673.92 223.36c-7.139-23.675-22.508-40.892-39.040-54.4-10.732-8.769-22.282-15.585-31.36-20.48-6.499-3.505-10.287-5.425-14.72-7.68h-58.88c0.982 4.747 1.324 8.094 3.2 16 4.111 17.32 8.621 40.61 3.84 65.28 16.653-2.099 33.751-3.2 51.2-3.2 30.654 0 58.892 1.609 85.76 4.48z" />
<glyph unicode="&#xe915;" glyph-name="horse" d="M780.8 899.84c-14.955-0.368-28.87-2.525-42.24-5.76-53.48-12.939-92.809-46.306-120.96-83.84-49.834-66.446-64.528-137.914-67.84-155.52-8.314-3.492-29.928-11.52-76.8-11.52-28.112 0-48.629 5.189-74.24 10.88s-55.978 12.16-97.92 12.16c-41.337 0-76.762-11.657-102.4-33.92-18.407-1.54-57.849-8.019-96.64-36.48-52.818-38.752-102.4-117.855-102.4-266.88 0.078-9.060 5.853-16.801 13.932-19.792l108.308-39.088c2.256-0.886 4.868-1.399 7.6-1.399 11.787 0 21.342 9.555 21.342 21.342 0 0.866-0.052 1.719-0.152 2.558 0.010-0.101-7.335 59.895-5.11 120.219 0.876 23.736 3.356 47.722 7.68 67.2 4.457-23.167 13.796-49.362 22.4-74.24 11.021-31.866 20.069-54.661 21.76-58.88l-9.6-90.88c-0.066-0.629-0.103-1.358-0.103-2.097 0-1.986 0.271-3.909 0.779-5.733l51.164-212.97c-0.002-0.095-0.002-0.207-0.002-0.32s0.001-0.225 0.003-0.337c6.087-21.288 26.814-37.743 49.28-37.743h47.36c11.6 0.242 20.91 9.703 20.91 21.338 0 1.509-0.157 2.981-0.454 4.401l-46.696 211.701c2.164 2.414 5.583 6.836 9.6 12.16-0.503-1.726-0.792-3.709-0.792-5.76s0.289-4.034 0.829-5.911l47.323-148.969c0.088-0.295 0.548-0.347 0.64-0.64 8.846-28.172 33.862-48.616 63.36-49.28 0.496-0.011 0.782-0.64 1.28-0.64v0.64l33.92-2.56c0.339-0.019 0.735-0.030 1.134-0.030 11.787 0 21.342 9.555 21.342 21.342 0 2.69-0.498 5.264-1.406 7.634l-59.471 165.614 60.8 87.040c39.676-2.175 88.399 0.606 145.28 11.52l39.040-275.84c0-0.207-0.002-0.434 0-0.64l0.64-2.56h0.64c1.775-25.633 21.73-48.64 49.28-48.64h34.56c11.693 0.123 21.124 9.631 21.124 21.341 0 0.147-0.001 0.294-0.004 0.441 0-0.022-2.556 82.064-6.4 168.938-1.922 43.437-4.376 88.462-6.4 124.8-0.635 11.398-1.327 14.964-1.92 23.68l81.92-27.52-17.28-101.76c-0.049-0.219 0.047-0.42 0-0.64-5.953-28.259 9.495-57.388 37.76-67.84v-0.64l1.28-0.64 23.040-9.6c2.384-1 5.155-1.581 8.062-1.581 9.998 0 18.39 6.874 20.707 16.154l40.991 172.307c8.301 33.202-5.409 69.854-37.76 85.12l-0.64 0.64-126.080 63.36c5.82 28.034 7.356 56.419 8.32 82.56 1.040 28.201 0.881 53.798 3.2 72.96 0.284 2.351 0.917 1.759 1.28 3.84 7.214-6.853 14.555-13.741 23.040-17.92 21.508-10.594 45.619-13.647 67.2-9.6 10.158 1.904 25.242-0.873 37.76-5.12s21.76-8.96 21.76-8.96c2.968-1.664 6.514-2.643 10.288-2.643 5.688 0 10.856 2.225 14.682 5.852l22.39 23.031c19.294 19.294 19.836 47.206 3.84 67.2 3.121-3.773 1.446-1.361-0.633 0.633l-96.647 111.367 29.44 37.12c3.12 3.686 5.016 8.495 5.016 13.746 0 8.157-4.576 15.246-11.302 18.838-39.098 20.349-74.812 32.243-107.635 37.816-16.412 2.787-32.405 4.208-47.36 3.84zM782.72 856.96c12.013 0.44 24.572-0.195 38.4-2.56 20.201-3.455 44.687-14.39 69.12-24.96l-22.4-28.16c-2.937-3.626-4.716-8.296-4.716-13.381 0-5.434 2.031-10.393 5.375-14.161l108.141-124.138c0.389-0.486 0.546-9.054-0.64-10.24l-12.16-12.16c-4.836 2.198-5.542 2.658-12.8 5.12-16.154 5.481-37.55 10.639-60.16 6.4-11.187-2.097-26.884 0.098-39.68 6.4s-22.185 15.78-25.6 29.44c-2.416 9.332-10.762 16.114-20.692 16.114-5.016 0-9.628-1.731-13.272-4.627-19.001-14.477-23.395-36.984-26.196-60.126s-2.832-49.449-3.84-76.8c-2.017-54.701-8.747-111.902-39.040-149.12-2.945-3.629-4.728-8.304-4.728-13.396 0-1.145 0.090-2.269 0.264-3.365 0.972-6.132 3.096-35.513 5.104-71.559s4.482-80.813 6.4-124.16c3.326-75.163 5.727-128.221 6.4-145.92h-12.8c-3.936 0-7.68 3.246-7.68 8.96 0.038 0.479 0.060 1.037 0.060 1.6s-0.022 1.121-0.065 1.673l-42.875 298.807c-1.436 10.517-10.36 18.534-21.157 18.534-1.805 0-3.557-0.224-5.231-0.646-95.285-21.838-163.174-17.024-206.573-7.009s-60.16 23.68-60.16 23.68c-3.536 2.698-8.017 4.323-12.878 4.323-8.881 0-16.496-5.425-19.71-13.142-31.294-78.246-75.572-124.301-75.572-124.301-3.884-3.866-6.287-9.216-6.287-15.127 0-1.671 0.192-3.297 0.555-4.857l43.492-195.056h-20.48c-5.693 0-6.039 0.759-7.68 6.4l-49.92 208.64 9.6 93.44c0.025 0.39 0.040 0.846 0.040 1.306 0 3.241-0.722 6.313-2.015 9.065 0.055-0.131-11.414 28.495-22.985 61.949s-22.4 74.915-22.4 85.76c0 12.693 1.343 24.090 3.2 34.56 0.825 2.186 1.302 4.714 1.302 7.352 0 0.34-0.008 0.679-0.024 1.015 4.17 17.724 11.289 31.807 20.482 42.832 5.627 1.474 11.108 6.639 13.395 13.29 16.292 12.251 38.462 18.71 69.165 18.71 37.93 0 63.243-5.307 88.32-10.88s50.512-11.52 83.84-11.52c65.234 0 103.68 18.56 103.68 18.56 5.484 2.395 10.208 8.211 11.5 15.229 0.020 0.131 15.233 85.695 63.38 149.891 24.073 32.098 55.528 57.739 97.28 67.84 10.438 2.525 21.907 4.040 33.92 4.48zM163.2 581.12c-2.415-6.119-4.044-12.58-5.76-19.2-8.517-4.229-16.064-9.736-21.76-16.64-8.935-10.83-14.672-23.795-19.2-37.76-9.055-27.93-12.249-60.498-13.44-92.8-1.757-47.635 1.214-72.427 3.2-93.44l-63.36 22.4c3.332 128.213 44.755 189.094 84.48 218.24 12.53 9.193 24.732 14.931 35.84 19.2zM783.36 423.68l120.32-60.16c-3.121 3.773-1.446 1.361 0.633-0.633 12.068-5.489 18.639-20.842 14.727-36.487-0.002-0.095-0.002-0.207-0.002-0.32s0.001-0.225 0.003-0.337l-35.2-147.183-1.28 0.64c-0.191 0.006-0.415 0.010-0.64 0.010s-0.449-0.003-0.673-0.010c-7.152 2.396-11.943 12.669-10.207 20.481 0.006 0.191 0.010 0.415 0.010 0.64s-0.003 0.449-0.010 0.673l20.481 120.287c0.254 1.236 0.4 2.657 0.4 4.111 0 9.331-5.988 17.263-14.33 20.164l-114.71 39.085c8.466 12.314 15.168 25.527 20.48 39.040zM382.080 338.56c12.407-5.392 27.895-11.213 48.64-16 3.042-0.702 6.352-1.292 9.6-1.92l-54.4-77.44c-2.454-3.43-3.924-7.71-3.924-12.333 0-2.697 0.5-5.278 1.413-7.653l52.431-145.134h-2.56c-0.191 0.006-0.415 0.010-0.64 0.010s-0.449-0.003-0.673-0.010c-10.489 0.001-20.731 7.987-24.287 19.841l-45.44 143.36c3.878 10.429 19.84 53.358 19.84 96 0.006 0.191 0.010 0.415 0.010 0.64s-0.003 0.449-0.010 0.673z" />
<glyph unicode="&#xe916;" glyph-name="rabbit" d="M411.52 944c-19.342 0.632-40.35-4.662-50.56-23.040-11.462-20.058-8.654-44.8 3.2-61.44 1.656-2.324 3.882-4.248 5.76-6.4-17.124 0.305-32.532-1.515-46.080-5.76-9.379-2.939-17.815-6.855-24.96-14.080s-12.16-18.048-12.16-28.8c0-21.049 9.685-39.679 23.68-52.48s31.511-21.316 50.56-28.8c38.098-14.967 83.575-25.807 122.24-42.24 0.095-0.002 0.207-0.002 0.32-0.002s0.225 0.001 0.337 0.003c39.982-16.667 72.407-34.138 91.503-44.8-9.479-28.642-20.685-41.309-34.56-48-14.356-6.923-34.588-7.998-60.16-6.4-51.143 3.196-121.475 16.78-194.56-19.2-94.149-46.533-144.828-120.644-166.4-193.28-11.036-37.16-15.062-73.72-14.080-106.88-48.351-6.254-85.12-44.738-85.12-90.88 0-50.41 41.75-92.16 92.16-92.16 21.891 0 44.881 7.368 65.28 19.2-1.412-11.488-4.691-26.285-10.88-45.44-3.699-11.433-4.657-23.523-1.28-34.56s10.993-19.906 19.84-25.6c17.694-11.389 39.267-14.137 64-15.36 49.284-2.437 113.182 4.718 172.16 5.76h0.64c50.135-0.027 129.548-4.090 196.48-5.12 33.575-0.517 63.793-0.771 87.040 1.28 11.624 1.026 21.307 2.373 30.080 5.12 4.386 1.374 8.735 3.423 13.44 7.040 1.86 1.43 4.034 3.317 5.76 5.76 0.935-1.061 1.51-2.172 2.56-3.2 10.251-10.038 25.643-15.36 42.88-15.36 35.645 0 70.868-0.333 98.56 1.28 13.846 0.807 26.046 1.599 36.48 4.48 5.217 1.441 10.001 3.716 15.36 7.68s11.52 12.459 11.52 21.76c0 25.906-8.328 46.57-21.76 60.8s-30.466 21.368-46.080 25.6c-15.614 4.232-30.090 6.204-40.96 8.32-8.152 1.587-12.922 3.775-14.080 3.84-0.742 1.86-2.491 5.889-3.84 10.24-2.346 7.567-5.275 17.515-8.32 29.44-6.089 23.85-13.358 54.202-21.76 82.56-13.611 45.369-0.256 61.056 16.64 87.68 15.315 24.133 33.108 57.178 23.68 105.6 3.608 0.26 7.306 0.301 10.88 0.64 31.167 2.955 60.506 8.757 85.12 18.56s46.006 23.508 55.68 46.080c17.764 43.726 0.487 96.989-28.16 145.28-28.489 48.024-70.235 91.684-116.48 113.92-0.109 0.051 0.109 0.588 0 0.64-0.186 0.092-0.454-0.092-0.64 0-22.707 11.265-47.487 17.932-72.32 20.48-23.846 2.447-47.602 0.28-70.4-5.12-13.776 15.86-42.183 46.037-83.2 76.8-48.617 35.935-103.342 66.531-150.4 83.84-23.529 8.654-45.298 14.088-64.64 14.72zM410.24 903.040c12.018-0.392 30.825-4.43 51.84-12.16 42.030-15.459 94.569-45.023 140.16-78.72v0.64c28.642-21.482 51.34-42.831 65.92-58.24-8.937-4.422-17.59-9.528-25.6-15.36-21.268 16.462-49.241 32.765-78.72 51.84-26.181 15.999-53.768 28.622-80.64 38.4-17.717 8.503-34.637 16.839-48.64 24.96-18.121 10.51-31.054 21.184-36.48 28.8s-6.202 8.666-1.28 17.28c0.002 0.095 0.002 0.207 0.002 0.32s-0.001 0.225-0.003 0.337c0.031 0.037 1.422 2.296 13.44 1.903zM370.56 812.16c4.988-0.111 10.495-0.718 16-1.28 25.587-2.614 56.203-10.425 87.68-22.4 25.725-12.414 51.699-24.983 74.24-38.4 1.142-0.891 4.234-2.122 7.578-2.549 21.823-13.832 42.353-27.037 56.422-37.131-6.802-8.385-12.861-17.552-17.92-27.52-0.078-0.152 0.076-0.488 0-0.64-1.48-2.763-2.539-5.531-3.84-8.32-20.268 11.387-51.355 28.281-90.88 44.8-0.201 0.086-0.439-0.084-0.64 0-43.084 18.229-89.454 29.108-122.88 42.24-16.791 6.596-29.995 14.017-37.76 21.12s-10.88 12.729-10.88 22.4c0.68 0.687 3.299 2.267 8.32 3.84 7.532 2.36 19.597 4.174 34.56 3.84zM754.56 733.44c7.476 0.234 14.917 0.077 22.4-0.64 19.956-1.911 39.501-7.591 57.6-16.64 0.095-0.002 0.207-0.002 0.32-0.002s0.225 0.001 0.337 0.003c35.349-16.799 74.070-56.228 99.183-98.56 24.941-42.043 34.153-86.193 25.6-108.16-2.614-6.1-13.222-15.947-32.64-23.68s-46.015-13.963-74.24-16.64c-56.451-5.353-120.91 2.535-155.52 19.84-63.554 31.777-93.683 89.68-78.080 147.2-0.337-1.218 0.269 0.563 0.62 2.433 0.149 0.564 0.525 0.971 0.66 1.407-0.337-1.218 0.269 0.563 0.62 2.433 2.365 7.216 5.197 14.249 8.98 21.247 0.002 0.095 0.002 0.207 0.002 0.32s-0.001 0.225-0.003 0.337c21.487 42.957 71.825 67.468 124.16 69.103zM829.44 611.84c-16.966 0-30.72-13.754-30.72-30.72s13.754-30.72 30.72-30.72c16.966 0 30.72 13.754 30.72 30.72s-13.754 30.72-30.72 30.72zM581.12 567.68c12.713-47.539 47.351-89.916 97.92-115.2 34.365-17.182 79.904-24.865 126.080-25.6 11.073-41.328-1.061-57.003-17.28-82.56-16.83-26.519-37.865-64.305-21.12-120.96 0.059-0.199-0.059-0.441 0-0.64 7.91-26.776 14.967-56.541 21.12-80.64 3.099-12.139 6.186-22.415 8.96-31.36 2.711-8.741 3.732-14.691 10.24-23.040h0.64c10.982-14.265 24.774-16.672 37.76-19.2 13.13-2.556 27.262-4.488 39.040-7.68s20.92-7.766 26.88-14.080c4.197-4.447 5.376-13.786 7.040-23.040-5.493-1.017-11.505-2-21.12-2.56-25.044-1.459-60.605-1.28-96.64-1.28-10.411 0-12.043 1.845-14.080 3.84s-4.965 7.053-8.32 16.64c-6.657 19.021-15.941 51.901-46.72 81.92-0.16 0.16-0.479 0.478-0.64 0.64-17.601 17.798-38.301 49.718-56.32 80-16.921 28.437-30.652 54.707-42.88 71.68-3.242 9.701-8.203 19.613-14.72 28.8-26.068 36.747-78.549 62.72-164.48 62.72-0.086 0.001-0.188 0.002-0.29 0.002-11.312 0-20.482-9.17-20.482-20.482s9.17-20.482 20.482-20.482c0.102 0 0.204 0.001 0.305 0.002 77.894 0 114.757-22.283 131.185-45.44 3.257-4.592 5.766-9.218 7.68-14.080-0.567 1.967-0.083-0.119 0.689-2.059 0.018-0.047-0.114-0.315-0.049-0.501-0.050-1.212 0.968-4.381 2.612-7.134 3.841-16.568 0.987-33.166-4.532-44.706-0.095 0.002-0.207 0.002-0.32 0.002s-0.225-0.001-0.337-0.003c-33.118-69.757-110.644-82.488-157.423-90.88-1.046-0.188-2.826-0.456-3.84-0.64-8.979-2.303-15.51-10.323-15.51-19.869 0-10.914 8.536-19.833 19.295-20.448 163.646-0.002 239.28-16.807 268.214-32.002 14.467-7.598 16.561-12.39 17.92-16.64 0.543-1.698-0.061-5.508 0-7.68-4.134-0.878-8.533-1.901-16-2.56-20.273-1.789-49.575-1.787-82.56-1.28-65.97 1.015-145.468 5.12-197.76 5.12-61.673-1.045-126.523-7.922-170.24-5.76-21.859 1.081-38.046 5.437-43.52 8.96-2.737 1.762-2.913 2.261-3.2 3.2s-0.653 3.625 1.28 9.6c11.232 34.765 15.265 60.043 13.44 80.64-0.376 4.242-0.954 8.329-1.92 12.16 0.794 2.098 1.254 4.523 1.254 7.056 0 9.482-6.443 17.459-15.191 19.792-2.282 2.586-4.188 5.065-6.543 7.072-11.212 9.558-22.658 13.642-29.44 17.28s-8.006 4.659-8.96 7.68c0.002 0.095 0.002 0.207 0.002 0.32s-0.001 0.225-0.003 0.337c-12.694 37.159-18.235 101.547 0.64 165.103s60.613 126.789 144.64 168.32c60.035 29.556 118.727 18.18 174.080 14.72 27.676-1.73 55.316-1.333 80.64 10.88 8.101 3.907 15.51 9.581 22.4 16zM109.44 222.080c2.456-15.502 5.994-29.699 10.24-42.24 0.097-0.308 0.537-0.337 0.64-0.64 5.388-15.875 18.424-25.498 28.16-30.72 6.698-3.593 11.736-6.323 16-8.96-17.638-11.198-38.591-19.2-51.84-19.2-27.414 0-51.2 23.786-51.2 51.2 0 24.853 18.377 46.69 48 50.56zM629.12 199.68c3.588-6.101 6.463-11.573 10.24-17.92 18.681-31.394 39.464-65.064 62.72-88.32 0.095-0.002 0.207-0.002 0.32-0.002s0.225 0.001 0.337 0.003c1.248-1.218 2.021-2.629 3.183-3.84-32.426 12.302-87.259 20.069-159.36 24.96 31.172 16.365 61.218 39.178 80 78.72 0.999 2.089 1.685 4.187 2.56 6.4z" />
<glyph unicode="&#xe917;" glyph-name="turtle" d="M855.040 775.68c-12.749-0.663-25.479-3.403-37.76-8.96-38.618-17.464-59.571-57.254-76.16-97.28s-28.765-83.066-40.32-112c-2.692-6.738-10.28-15.499-19.2-24.96-0.155 0.664-0.467 1.262-0.64 1.92-6.312 23.986-29.351 39.748-56.32 42.88-18.753 34.331-49.812 72.292-101.12 95.36-27.59 12.404-60.4 20.26-98.56 21.12s-81.852-4.97-131.2-20.48c-109.099-34.26-166.076-101.851-189.44-166.4-11.682-32.274-15.211-63.54-13.44-90.24 1.204-18.159 4.876-33.383 10.88-46.72-4.603-3.608-6.212-2.821-10.88-8.96-5.876-7.727-11.224-18.639-12.16-31.36-0.846-11.505 3.061-23.907 10.24-35.84-27.506-13.622-57.941-35.849-83.84-64-3.252-3.641-5.24-8.472-5.24-13.767 0-11.436 9.271-20.707 20.707-20.707 2.485 0 4.868 0.438 7.076 1.241 16.778 5.904 41.198 9.164 63.856 8.274 16.367-0.643 27.571-5.263 38.4-9.6-4.657-14.196-12.294-31.785-21.12-42.88-11.314-14.22-20.755-25.897-17.92-44.8 1.418-9.452 8.666-18.916 16.64-23.040s15.961-5.12 24.32-5.12c23.112 0 37.004-0.329 80.64 0 12.402 0.092 28.547 5.097 41.6 17.92 11.014 10.82 24.639 30.904 40.96 55.68 152.323-27.417 247.19 1.432 272 10.24 2.841-9.23 3.67-14.513 11.52-29.44 6.464-12.291 14.613-24.596 26.24-35.2s27.564-19.2 46.080-19.2h72.96c38.405 0 59.376 26.607 49.92 49.92-21.764 53.361-33.113 91.615-37.12 120.32-11.147 79.999 27.304 166.669 106.24 241.92 19.708-17.030 44.531-27.013 69.76-25.6 33.926 1.9 67.881 17.479 88.32 47.36 38.595 56.423 25.611 131.525-9.6 184.96 0.002 0.095 0.002 0.207 0.002 0.32s-0.001 0.225-0.003 0.337c-18.259 27.679-44.422 50.803-74.88 64.623-15.229 6.91-31.813 11.307-48.64 12.16-4.207 0.213-8.55 0.221-12.8 0zM865.92 734.72c10.852-0.67 22.105-3.889 33.28-8.96 22.35-10.141 43.644-28.751 57.6-49.92 27.704-42.043 35.558-100.932 9.6-138.88-11.837-17.305-34.213-28.842-56.32-30.080s-41.289 6.694-51.2 23.68c-3.672 6.124-10.275 10.16-17.82 10.16-5.189 0-9.932-1.909-13.566-5.062-95.691-84.486-145.975-190.186-131.814-291.818 4.455-31.912 17.272-72.32 37.12-122.24-0.994-0.398-0.592-0.64-8.96-0.64h-72.96c-6.419 0-12.218 1.895-18.56 7.68s-12.252 15.399-17.28 24.96c-10.056 19.122-15.36 38.4-15.36 38.4-2.187 9.271-10.39 16.064-20.18 16.064-2.638 0-5.161-0.493-7.481-1.393 0.141 0.048-111.032-47.029-282.739-12.112-1.32 0.3-2.836 0.471-4.392 0.471-7.244 0-13.619-3.719-17.32-9.353-21.327-33.061-34.421-50.59-42.288-58.318s-6.468-6.348-13.44-6.4c-40.588-0.306-53.928-0.035-74.88 0 1.253 2.725 0.148 1.12 3.84 5.76 13.225 16.625 36.96 45.424 36.48 81.28 0 0.014 0 0.030 0 0.046 0 6.768-3.247 12.777-8.267 16.555-20.928 15.272-48.531 20.711-76.213 21.798-0.657 0.027-1.262-0.020-1.92 0 15.988 9.837 31.021 16.996 39.68 19.2-0.784-0.451 2.065 0.505 4.579 1.973 1.828-0.325 3.706-1.114 5.661-1.333 19.828-2.218 42.661-1.22 68.48 1.92 51.638 6.28 113.875 21.305 170.88 39.68 111.569 35.964 207.644 88.148 264.96 135.040-1.233-0.954 1.934 0.807 4.491 3.21 3.594 3.024 7.206 6.253 10.229 9.59 30.252 24.927 65.747 50.731 80 86.4 13.144 32.915 23.916 75.508 39.040 112s34.292 65.208 55.68 74.88c10.055 4.55 20.508 6.43 31.36 5.76zM423.68 652.8c33-0.718 60.1-7.822 82.56-17.92 44.92-20.196 72.527-54.558 87.040-83.84 3.526-6.682 10.427-11.159 18.374-11.159 1.196 0 2.368 0.101 3.508 0.296 16.99 2.595 22.272-4.477 25.478-16.657s-0.023-30.374-17.92-45.44c2.079 1.5-0.839-0.251-3.204-2.564-51.009-41.884-144.769-93.38-252.156-127.996-54.878-17.69-114.85-32.597-162.56-38.4-23.855-2.901-44.949-3.55-59.52-1.92s-20.931 6.427-20.48 5.76c-4.658 6.9-4.694 11.169-4.48 14.080s1.45 5.817 3.84 8.96c4.78 6.285 12.8 10.88 12.8 10.88 6.611 3.547 11.032 10.411 11.032 18.308 0 4.965-1.747 9.522-4.661 13.089-3.305 3.996-10.106 20.041-11.491 40.923s1.877 46.958 11.52 73.6c19.286 53.283 64.714 109.872 163.2 140.8 45.721 14.37 84.12 19.918 117.12 19.2zM931.84 652.8c-16.966 0-30.72-13.754-30.72-30.72s13.754-30.72 30.72-30.72c16.966 0 30.72 13.754 30.72 30.72s-13.754 30.72-30.72 30.72z" />
<glyph unicode="&#xe918;" glyph-name="shopping_cart" d="M37.12 919.040c1.96 0.566-0.122 0.082-2.059-0.689-19.745-2.761-35.061-19.613-35.061-40.271 0-22.622 18.338-40.96 40.96-40.96s40.96 18.338 40.96 40.96h95.36c25.532 0 38.786-5.242 48.64-14.080 9.693-8.694 17.508-23.479 24.32-46.080l163.84-661.12c6.184-23.472 12.356-47.586 29.44-67.2 7.118-8.172 16.077-14.81 26.88-19.84-11.967-14.252-19.84-31.92-19.84-51.84 0-45.001 36.919-81.92 81.92-81.92s81.92 36.919 81.92 81.92c0 15-4.384 28.824-11.52 40.96h125.44c-7.136-12.136-11.52-25.96-11.52-40.96 0-45.001 36.919-81.92 81.92-81.92s81.92 36.919 81.92 81.92c0 21.051-8.554 39.838-21.76 54.4 0.79 2.093 1.248 4.513 1.248 7.040 0 11.3-9.151 20.462-20.446 20.48h-312.962c-31.562 0-44.476 6.716-53.12 16.64-8.549 9.815-13.795 27.059-19.84 49.92v0.64l-14.080 55.68h375.68c0.018 0 0.039 0 0.060 0 8.76 0 16.227 5.535 19.095 13.299l147.246 389.261c0.827 2.13 1.306 4.595 1.306 7.172 0 11.238-9.111 20.349-20.349 20.349-0.055 0-0.11 0-0.165-0.001h-629.112l-43.52 174.72c0.006 0.191 0.010 0.415 0.010 0.64s-0.004 0.449-0.011 0.673c-7.827 26.346-17.968 49.285-36.479 65.887s-44.45 24.32-76.16 24.32h-136.32c-0.287 0.014-0.622 0.023-0.96 0.023s-0.673-0.008-1.007-0.024c-0.24 0.016-0.575 0.024-0.913 0.024s-0.673-0.008-1.007-0.024zM343.68 611.84h589.44l-131.84-348.16h-371.2l-86.4 348.16zM532.48 58.88c22.864 0 40.96-18.096 40.96-40.96s-18.096-40.96-40.96-40.96c-22.864 0-40.96 18.096-40.96 40.96s18.096 40.96 40.96 40.96zM798.72 58.88c22.864 0 40.96-18.096 40.96-40.96s-18.096-40.96-40.96-40.96c-22.864 0-40.96 18.096-40.96 40.96s18.096 40.96 40.96 40.96z" />
<glyph unicode="&#xe919;" glyph-name="search" d="M430.080 898.56c-192.041 0-348.16-156.119-348.16-348.16s156.119-348.16 348.16-348.16c75.971 0 146.234 24.497 203.52 65.92l269.44-268.8 57.6 57.6-266.24 266.88c52.312 60.927 83.84 140.108 83.84 226.56 0 192.041-156.119 348.16-348.16 348.16zM430.080 857.6c169.904 0 307.2-137.296 307.2-307.2s-137.296-307.2-307.2-307.2c-169.904 0-307.2 137.296-307.2 307.2s137.296 307.2 307.2 307.2z" />
</font>
</defs>
</svg>
